[ass]_Hokuto_no_Ken_-_018(fixsubs).avi


File Size194.3 MB (203,694,080 bytes)
DownloadClickNUpload | Go4Up | Jheberg | MultiUp | OpenLoad | Sendspace | SolidFiles | Upfile.mobi
Encrypted DownloadDirect
Password:
HashesCRC32: 267E6F8B, MD5: 18C00D0C59AF88F1488AEB4FCEACBBE2, SHA1: 953D145F05FAA36A71AC48B7EAB9A2E5F9B7ADAA, SHA256: 25ACCA203A44D2CEFA29A7C3A5A893F3F1B14F274382912C4A94FCF9B02C9385, ED2K: 352CA984986C22ADB2E6A6AEC085FF6D
Screenshots
screenshotscreenshotscreenshotscreenshotscreenshot
Additional Info
General
Complete name                            : [ass]_Hokuto_no_Ken_-_018(fixsubs).avi
Format                                   : AVI
Format/Info                              : Audio Video Interleave
File size                                : 194 MiB
Duration                                 : 24 min 9 s
Overall bit rate                         : 1 124 kb/s
Writing application                      : Nandub v1.0rc2
Writing library                          : Nandub build 1853/release

Video
ID                                       : 0
Format                                   : MPEG-4 Visual
Format settings, BVOP                    : 1
Format settings, QPel                    : No
Format settings, GMC                     : No warppoints
Format settings, Matrix                  : Default (H.263)
Muxing mode                              : Packed bitstream
Codec ID                                 : DX50
Codec ID/Hint                            : DivX 5
Duration                                 : 24 min 9 s
Bit rate                                 : 951 kb/s
Nominal bit rate                         : 4 000 kb/s
Width                                    : 640 pixels
Height                                   : 480 pixels
Display aspect ratio                     : 4:3
Frame rate                               : 29.970 (30000/1001) FPS
Color space                              : YUV
Chroma subsampling                       : 4:2:0
Bit depth                                : 8 bits
Scan type                                : Progressive
Compression mode                         : Lossy
Bits/(Pixel*Frame)                       : 0.103
Stream size                              : 164 MiB (85%)
Writing library                          : DivX 5.0.3 (UTC 2003-01-24)

Audio
ID                                       : 1
Format                                   : MPEG Audio
Format version                           : Version 1
Format profile                           : Layer 3
Mode                                     : Joint stereo
Mode extension                           : MS Stereo
Codec ID                                 : 55
Codec ID/Hint                            : MP3
Duration                                 : 24 min 9 s
Bit rate mode                            : Constant
Bit rate                                 : 160 kb/s
Channel(s)                               : 2 channels
Sampling rate                            : 44.1 kHz
Compression mode                         : Lossy
Delay relative to video                  : 12 ms
Stream size                              : 27.6 MiB (14%)
Alignment                                : Aligned on interleaves
Interleave, duration                     : 26  ms (0.78 video frame)
Interleave, preload duration             : 522  ms

Other Files in this Torrent
[ass]_Hokuto_no_Ken_-_018(fixsubs).avi
beta
Anime DDL+NZB mirror
Current Time: 27/04/2018 08:35



About/FAQs