[ass]_Hokuto_no_Ken_-_019(fixsubs).avi


File Size198.7 MB (208,396,288 bytes)
DownloadClickNUpload | Go4Up | Jheberg | MultiUp | OpenLoad | Sendspace | SolidFiles | Upfile.mobi
HashesCRC32: 85B451AB, MD5: A01E2564ABBFFDDC2A4BDD21635C38F4, SHA1: 8254C5F4F14362E721042AD43DB1812C36224997, SHA256: 81888DC550E5591C7CE75F7BF8882F1E9C90E6B416836611F3FB14245318FDEB, ED2K: 3132FF90D19C82D722B921FE09D4F3AE
Screenshots
screenshotscreenshotscreenshotscreenshotscreenshot
Additional Info
General
Complete name                            : [ass]_Hokuto_no_Ken_-_019(fixsubs).avi
Format                                   : AVI
Format/Info                              : Audio Video Interleave
File size                                : 199 MiB
Duration                                 : 24 min 10 s
Overall bit rate                         : 1 149 kb/s
Writing application                      : Nandub v1.0rc2
Writing library                          : Nandub build 1853/release

Video
ID                                       : 0
Format                                   : MPEG-4 Visual
Format settings, BVOP                    : 1
Format settings, QPel                    : No
Format settings, GMC                     : No warppoints
Format settings, Matrix                  : Default (H.263)
Muxing mode                              : Packed bitstream
Codec ID                                 : DX50
Codec ID/Hint                            : DivX 5
Duration                                 : 24 min 10 s
Bit rate                                 : 976 kb/s
Nominal bit rate                         : 4 000 kb/s
Width                                    : 640 pixels
Height                                   : 480 pixels
Display aspect ratio                     : 4:3
Frame rate                               : 29.970 (30000/1001) FPS
Color space                              : YUV
Chroma subsampling                       : 4:2:0
Bit depth                                : 8 bits
Scan type                                : Progressive
Compression mode                         : Lossy
Bits/(Pixel*Frame)                       : 0.106
Stream size                              : 169 MiB (85%)
Writing library                          : DivX 5.0.3 (UTC 2003-01-24)

Audio
ID                                       : 1
Format                                   : MPEG Audio
Format version                           : Version 1
Format profile                           : Layer 3
Mode                                     : Joint stereo
Codec ID                                 : 55
Codec ID/Hint                            : MP3
Duration                                 : 24 min 10 s
Bit rate mode                            : Constant
Bit rate                                 : 160 kb/s
Channel(s)                               : 2 channels
Sampling rate                            : 44.1 kHz
Compression mode                         : Lossy
Stream size                              : 27.7 MiB (14%)
Alignment                                : Aligned on interleaves
Interleave, duration                     : 26  ms (0.78 video frame)
Interleave, preload duration             : 496  ms

Other Files in this Torrent
[ass]_Hokuto_no_Ken_-_019(fixsubs).avi
beta
Anime DDL+NZB mirror
Current Time: 16/01/2018 19:37



About/FAQs