[ass]_Hokuto_no_Ken_-_021(fixsubs).avi


File Size200.1 MB (209,838,080 bytes)
DownloadClickNUpload | Go4Up | Jheberg | MultiUp | OpenLoad | Sendspace | SolidFiles | Upfile.mobi
HashesCRC32: B4F62664, MD5: 29023807D1A33CC225445CAB5F6FD030, SHA1: CD4AB99541D38A6B70C3FE560EC46E979365EEE1, SHA256: 821B270756F57ABB248D6F7CDC3D37E9A33CB1496BECF4F1BE691D83969C9A3A, ED2K: 00FAC64905E5CBC8EF05A54B0AC950E1
Screenshots
screenshotscreenshotscreenshotscreenshotscreenshot
Additional Info
General
Complete name                            : [ass]_Hokuto_no_Ken_-_021(fixsubs).avi
Format                                   : AVI
Format/Info                              : Audio Video Interleave
File size                                : 200 MiB
Duration                                 : 24 min 9 s
Overall bit rate                         : 1 158 kb/s
Writing application                      : Nandub v1.0rc2
Writing library                          : Nandub build 1853/release

Video
ID                                       : 0
Format                                   : MPEG-4 Visual
Format settings, BVOP                    : No
Format settings, QPel                    : No
Format settings, GMC                     : No warppoints
Format settings, Matrix                  : Default (H.263)
Codec ID                                 : DX50
Codec ID/Hint                            : DivX 5
Duration                                 : 24 min 9 s
Bit rate                                 : 985 kb/s
Nominal bit rate                         : 4 000 kb/s
Width                                    : 640 pixels
Height                                   : 480 pixels
Display aspect ratio                     : 4:3
Frame rate                               : 29.970 (30000/1001) FPS
Color space                              : YUV
Chroma subsampling                       : 4:2:0
Bit depth                                : 8 bits
Scan type                                : Progressive
Compression mode                         : Lossy
Bits/(Pixel*Frame)                       : 0.107
Stream size                              : 170 MiB (85%)
Writing library                          : DivX 5.0.3 (UTC 2003-01-24)

Audio
ID                                       : 1
Format                                   : MPEG Audio
Format version                           : Version 1
Format profile                           : Layer 3
Mode                                     : Joint stereo
Mode extension                           : MS Stereo
Codec ID                                 : 55
Codec ID/Hint                            : MP3
Duration                                 : 24 min 9 s
Bit rate mode                            : Constant
Bit rate                                 : 160 kb/s
Channel(s)                               : 2 channels
Sampling rate                            : 44.1 kHz
Compression mode                         : Lossy
Stream size                              : 27.6 MiB (14%)
Alignment                                : Aligned on interleaves
Interleave, duration                     : 26  ms (0.78 video frame)
Interleave, preload duration             : 496  ms

Other Files in this Torrent
[ass]_Hokuto_no_Ken_-_021(fixsubs).avi
beta
Anime DDL+NZB mirror
Current Time: 16/01/2018 19:31



About/FAQs