[ass]_Hokuto_no_Ken_-_022(fixsubs).avi


File Size199.4 MB (209,119,232 bytes)
DownloadClickNUpload | Go4Up | Jheberg | MultiUp | OpenLoad | Sendspace | SolidFiles | Upfile.mobi
HashesCRC32: 134432D9, MD5: 1583D6E47DE0295FF42B7469F4BCDEAB, SHA1: C00A788DA12BC2294B643132497B7D1EB560E98B, SHA256: 854B56EDEFD3D2CE5F922CE6A2DFB58C4A6632B46BA075388C8592B089C2C754, ED2K: 2FCC15E0458A24EBF12451A72746E467
Screenshots
screenshotscreenshotscreenshotscreenshotscreenshot
Additional Info
General
Complete name                            : [ass]_Hokuto_no_Ken_-_022(fixsubs).avi
Format                                   : AVI
Format/Info                              : Audio Video Interleave
File size                                : 199 MiB
Duration                                 : 24 min 9 s
Overall bit rate                         : 1 154 kb/s
Writing application                      : Nandub v1.0rc2
Writing library                          : Nandub build 1853/release

Video
ID                                       : 0
Format                                   : MPEG-4 Visual
Format settings, BVOP                    : 1
Format settings, QPel                    : No
Format settings, GMC                     : No warppoints
Format settings, Matrix                  : Default (H.263)
Muxing mode                              : Packed bitstream
Codec ID                                 : DX50
Codec ID/Hint                            : DivX 5
Duration                                 : 24 min 9 s
Bit rate                                 : 981 kb/s
Nominal bit rate                         : 4 000 kb/s
Width                                    : 640 pixels
Height                                   : 480 pixels
Display aspect ratio                     : 4:3
Frame rate                               : 29.970 (30000/1001) FPS
Color space                              : YUV
Chroma subsampling                       : 4:2:0
Bit depth                                : 8 bits
Scan type                                : Progressive
Compression mode                         : Lossy
Bits/(Pixel*Frame)                       : 0.107
Stream size                              : 169 MiB (85%)
Writing library                          : DivX 5.0.3 (UTC 2003-01-24)

Audio
ID                                       : 1
Format                                   : MPEG Audio
Format version                           : Version 1
Format profile                           : Layer 3
Mode                                     : Joint stereo
Mode extension                           : MS Stereo
Codec ID                                 : 55
Codec ID/Hint                            : MP3
Duration                                 : 24 min 9 s
Bit rate mode                            : Constant
Bit rate                                 : 160 kb/s
Channel(s)                               : 2 channels
Sampling rate                            : 44.1 kHz
Compression mode                         : Lossy
Stream size                              : 27.6 MiB (14%)
Alignment                                : Aligned on interleaves
Interleave, duration                     : 26  ms (0.78 video frame)
Interleave, preload duration             : 496  ms

Other Files in this Torrent
[ass]_Hokuto_no_Ken_-_022(fixsubs).avi
beta
Anime DDL+NZB mirror
Current Time: 18/01/2018 14:08



About/FAQs