[ass]_Hokuto_no_Ken_-_027(fixed)[B99EA152].avi


File Size231.9 MB (243,202,048 bytes)
DownloadClickNUpload | Go4Up | Jheberg | MultiUp | OpenLoad | Sendspace | SolidFiles | Upfile.mobi
HashesCRC32: B99EA152, MD5: CC51C5C03C911AF35EE5F57A98740EC6, SHA1: F322492EE357536D6E4BE3B1513B91033FD04FED, SHA256: 28B1FD5170C3B7B823D6EE956C1FFB0CA3CA03677AFAC7D108295EAA2A97BFBE, ED2K: DB7695701541BC4768724DA6DE010DDD
Screenshots
screenshotscreenshotscreenshotscreenshotscreenshot
Additional Info
General
Complete name                            : [ass]_Hokuto_no_Ken_-_027(fixed)[B99EA152].avi
Format                                   : AVI
Format/Info                              : Audio Video Interleave
File size                                : 232 MiB
Duration                                 : 24 min 9 s
Overall bit rate                         : 1 343 kb/s
Writing application                      : Nandub v1.0rc2
Writing library                          : Nandub build 1853/release

Video
ID                                       : 0
Format                                   : MPEG-4 Visual
Format settings, BVOP                    : 1
Format settings, QPel                    : No
Format settings, GMC                     : No warppoints
Format settings, Matrix                  : Default (H.263)
Muxing mode                              : Packed bitstream
Codec ID                                 : DX50
Codec ID/Hint                            : DivX 5
Duration                                 : 24 min 9 s
Bit rate                                 : 1 201 kb/s
Nominal bit rate                         : 4 000 kb/s
Width                                    : 640 pixels
Height                                   : 480 pixels
Display aspect ratio                     : 4:3
Frame rate                               : 29.970 (30000/1001) FPS
Color space                              : YUV
Chroma subsampling                       : 4:2:0
Bit depth                                : 8 bits
Scan type                                : Progressive
Compression mode                         : Lossy
Bits/(Pixel*Frame)                       : 0.130
Stream size                              : 208 MiB (89%)
Writing library                          : DivX 5.0.5 (UTC 2003-04-24)

Audio
ID                                       : 1
Format                                   : MPEG Audio
Format version                           : Version 1
Format profile                           : Layer 3
Mode                                     : Joint stereo
Mode extension                           : MS Stereo
Codec ID                                 : 55
Codec ID/Hint                            : MP3
Duration                                 : 24 min 9 s
Bit rate mode                            : Constant
Bit rate                                 : 128 kb/s
Channel(s)                               : 2 channels
Sampling rate                            : 44.1 kHz
Compression mode                         : Lossy
Stream size                              : 22.1 MiB (10%)
Alignment                                : Aligned on interleaves
Interleave, duration                     : 26  ms (0.78 video frame)
Interleave, preload duration             : 496  ms

Other Files in this Torrent
[ass]_Hokuto_no_Ken_-_027(fixed)[B99EA152].avi
beta
Anime DDL+NZB mirror
Current Time: 16/01/2018 19:35



About/FAQs