[ass]_Hokuto_no_Ken_-_032[5E829E29].avi


File Size177.3 MB (185,888,768 bytes)
DownloadClickNUpload | Go4Up | Jheberg | MultiUp | OpenLoad | Sendspace | SolidFiles | Upfile.mobi
HashesCRC32: 5E829E29, MD5: 9D9DAAF569CF982D2D8FD55CD3047A7E, SHA1: 27F622D2DE2DB8A0DDF76585EC65AD1763B3DD01, SHA256: 0C15F816BB89DA0C4357CB9B152C4B1C5B1F0ACA5D55417ADAE916C983F50204, ED2K: 91E383CC4BC3AAC877A4341F6FD593C5
Screenshots
screenshotscreenshotscreenshotscreenshotscreenshot
Additional Info
General
Complete name                            : [ass]_Hokuto_no_Ken_-_032[5E829E29].avi
Format                                   : AVI
Format/Info                              : Audio Video Interleave
File size                                : 177 MiB
Duration                                 : 21 min 43 s
Overall bit rate                         : 1 141 kb/s
Writing application                      : Nandub v1.0rc2
Writing library                          : Nandub build 1853/release

Video
ID                                       : 0
Format                                   : MPEG-4 Visual
Format settings, BVOP                    : 1
Format settings, QPel                    : No
Format settings, GMC                     : No warppoints
Format settings, Matrix                  : Default (H.263)
Muxing mode                              : Packed bitstream
Codec ID                                 : DX50
Codec ID/Hint                            : DivX 5
Duration                                 : 21 min 43 s
Bit rate                                 : 1 000 kb/s
Nominal bit rate                         : 6 951 kb/s
Width                                    : 640 pixels
Height                                   : 480 pixels
Display aspect ratio                     : 4:3
Frame rate                               : 23.976 (24000/1001) FPS
Color space                              : YUV
Chroma subsampling                       : 4:2:0
Bit depth                                : 8 bits
Scan type                                : Progressive
Compression mode                         : Lossy
Bits/(Pixel*Frame)                       : 0.136
Stream size                              : 156 MiB (88%)
Writing library                          : DivX 5.1.0 (UTC 2003-09-02)

Audio
ID                                       : 1
Format                                   : MPEG Audio
Format version                           : Version 1
Format profile                           : Layer 3
Mode                                     : Joint stereo
Mode extension                           : MS Stereo
Codec ID                                 : 55
Codec ID/Hint                            : MP3
Duration                                 : 21 min 43 s
Bit rate mode                            : Constant
Bit rate                                 : 128 kb/s
Channel(s)                               : 2 channels
Sampling rate                            : 44.1 kHz
Compression mode                         : Lossy
Stream size                              : 19.9 MiB (11%)
Alignment                                : Aligned on interleaves
Interleave, duration                     : 26  ms (0.63 video frame)
Interleave, preload duration             : 496  ms

Other Files in this Torrent
[ass]_Hokuto_no_Ken_-_032[5E829E29].avi
beta
Anime DDL+NZB mirror
Current Time: 16/01/2018 19:38



About/FAQs