[ass]_Hokuto_no_Ken_-_034[663E4C8C].avi


File Size173.0 MB (181,383,168 bytes)
DownloadClickNUpload | Go4Up | Jheberg | MultiUp | OpenLoad | Sendspace | SolidFiles | Upfile.mobi
Encrypted DownloadDirect
Password:
HashesCRC32: 663E4C8C, MD5: 6292AD2FAA6E9529AD409D710891771D, SHA1: 9A7C6598F75B14487D4855901603B77F4DBAE8A3, SHA256: CAD3514A46F15F772FF512CCC53BF08C1D0A0996D01DFEA91B1A43CFA154808E, ED2K: F66A9AA5C9B74B67BB9F88A7ACD6F49E
Screenshots
screenshotscreenshotscreenshotscreenshotscreenshot
Additional Info
General
Complete name                            : [ass]_Hokuto_no_Ken_-_034[663E4C8C].avi
Format                                   : AVI
Format/Info                              : Audio Video Interleave
File size                                : 173 MiB
Duration                                 : 21 min 46 s
Overall bit rate                         : 1 110 kb/s
Writing application                      : Nandub v1.0rc2
Writing library                          : Nandub build 1853/release

Video
ID                                       : 0
Format                                   : MPEG-4 Visual
Format settings, BVOP                    : 1
Format settings, QPel                    : No
Format settings, GMC                     : No warppoints
Format settings, Matrix                  : Default (H.263)
Muxing mode                              : Packed bitstream
Codec ID                                 : DX50
Codec ID/Hint                            : DivX 5
Duration                                 : 21 min 46 s
Bit rate                                 : 970 kb/s
Nominal bit rate                         : 6 951 kb/s
Width                                    : 640 pixels
Height                                   : 480 pixels
Display aspect ratio                     : 4:3
Frame rate                               : 23.976 (24000/1001) FPS
Color space                              : YUV
Chroma subsampling                       : 4:2:0
Bit depth                                : 8 bits
Scan type                                : Progressive
Compression mode                         : Lossy
Bits/(Pixel*Frame)                       : 0.132
Stream size                              : 151 MiB (87%)
Writing library                          : DivX 5.1.0 (UTC 2003-09-02)

Audio
ID                                       : 1
Format                                   : MPEG Audio
Format version                           : Version 1
Format profile                           : Layer 3
Mode                                     : Joint stereo
Mode extension                           : MS Stereo
Codec ID                                 : 55
Codec ID/Hint                            : MP3
Duration                                 : 21 min 46 s
Bit rate mode                            : Constant
Bit rate                                 : 128 kb/s
Channel(s)                               : 2 channels
Sampling rate                            : 44.1 kHz
Compression mode                         : Lossy
Stream size                              : 19.9 MiB (12%)
Alignment                                : Aligned on interleaves
Interleave, duration                     : 26  ms (0.63 video frame)
Interleave, preload duration             : 496  ms

Other Files in this Torrent
[ass]_Hokuto_no_Ken_-_034[663E4C8C].avi
beta
Anime DDL+NZB mirror
Current Time: 27/04/2018 08:34



About/FAQs