[ass]_Hokuto_no_Ken_-_036[19809FFB].avi


File Size172.6 MB (180,992,000 bytes)
DownloadClickNUpload | Go4Up | Jheberg | MultiUp | OpenLoad | Sendspace | SolidFiles | Upfile.mobi
HashesCRC32: 19809FFB, MD5: ED791AC21D7D4258489ED67038DE412E, SHA1: 5674C3CF9D12D89ABB407C9BE9FD7D5642D580AC, SHA256: 58211DF28C9FB8178C1BFD6A56D041801A9E0B57EDC9D45E355FDA75E84C965E, ED2K: 2BAFEF4E956BAFA09125727E7A073C73
Screenshots
screenshotscreenshotscreenshotscreenshotscreenshot
Additional Info
General
Complete name                            : [ass]_Hokuto_no_Ken_-_036[19809FFB].avi
Format                                   : AVI
Format/Info                              : Audio Video Interleave
File size                                : 173 MiB
Duration                                 : 21 min 43 s
Overall bit rate                         : 1 111 kb/s
Writing application                      : Nandub v1.0rc2
Writing library                          : Nandub build 1853/release

Video
ID                                       : 0
Format                                   : MPEG-4 Visual
Format settings, BVOP                    : 1
Format settings, QPel                    : No
Format settings, GMC                     : No warppoints
Format settings, Matrix                  : Default (H.263)
Muxing mode                              : Packed bitstream
Codec ID                                 : DX50
Codec ID/Hint                            : DivX 5
Duration                                 : 21 min 43 s
Bit rate                                 : 970 kb/s
Nominal bit rate                         : 6 951 kb/s
Width                                    : 640 pixels
Height                                   : 480 pixels
Display aspect ratio                     : 4:3
Frame rate                               : 23.976 (24000/1001) FPS
Color space                              : YUV
Chroma subsampling                       : 4:2:0
Bit depth                                : 8 bits
Scan type                                : Progressive
Compression mode                         : Lossy
Bits/(Pixel*Frame)                       : 0.132
Stream size                              : 151 MiB (87%)
Writing library                          : DivX 5.1.0 (UTC 2003-09-02)

Audio
ID                                       : 1
Format                                   : MPEG Audio
Format version                           : Version 1
Format profile                           : Layer 3
Mode                                     : Joint stereo
Mode extension                           : MS Stereo
Codec ID                                 : 55
Codec ID/Hint                            : MP3
Duration                                 : 21 min 43 s
Bit rate mode                            : Constant
Bit rate                                 : 128 kb/s
Channel(s)                               : 2 channels
Sampling rate                            : 44.1 kHz
Compression mode                         : Lossy
Stream size                              : 19.9 MiB (12%)
Alignment                                : Aligned on interleaves
Interleave, duration                     : 26  ms (0.63 video frame)
Interleave, preload duration             : 496  ms

Other Files in this Torrent
[ass]_Hokuto_no_Ken_-_036[19809FFB].avi
beta
Anime DDL+NZB mirror
Current Time: 16/01/2018 19:39



About/FAQs