[ass]_Hokuto_no_Ken_-_037[XviD-RC4.9468356D].avi


File Size174.3 MB (182,722,560 bytes)
DownloadClickNUpload | Go4Up | Jheberg | MultiUp | OpenLoad | Sendspace | SolidFiles | Upfile.mobi
HashesCRC32: 9468356D, MD5: BAC45E1D1C33196596B452CDD089E212, SHA1: 405CAB892DF67BADDE77D2DB3561F506C4DE4EE1, SHA256: 7838449464CC675BFF0A04A5936A3A937531524C92902F45BD7BB5559582AAD9, ED2K: 5CB3F1F39BF135ED0E5C9FA73DC5BB45
Screenshots
screenshotscreenshotscreenshotscreenshotscreenshot
Additional Info
General
Complete name                            : [ass]_Hokuto_no_Ken_-_037[XviD-RC4.9468356D].avi
Format                                   : AVI
Format/Info                              : Audio Video Interleave
File size                                : 174 MiB
Duration                                 : 24 min 9 s
Overall bit rate                         : 1 009 kb/s
Writing application                      : Nandub v1.0rc2
Writing library                          : Nandub build 1853/release

Video
ID                                       : 0
Format                                   : MPEG-4 Visual
Format profile                           : Advanced [email protected]
Format settings, BVOP                    : 2
Format settings, QPel                    : No
Format settings, GMC                     : 3 warppoints
Format settings, Matrix                  : Default (H.263)
Codec ID                                 : XVID
Codec ID/Hint                            : XviD
Duration                                 : 24 min 9 s
Bit rate                                 : 869 kb/s
Width                                    : 640 pixels
Height                                   : 480 pixels
Display aspect ratio                     : 4:3
Frame rate                               : 23.976 (24000/1001) FPS
Color space                              : YUV
Chroma subsampling                       : 4:2:0
Bit depth                                : 8 bits
Scan type                                : Progressive
Compression mode                         : Lossy
Bits/(Pixel*Frame)                       : 0.118
Stream size                              : 150 MiB (86%)
Writing library                          : XviD 1.0.0 RC4 (Hola) (UTC 2004-04-05)

Audio
ID                                       : 1
Format                                   : MPEG Audio
Format version                           : Version 1
Format profile                           : Layer 3
Mode                                     : Joint stereo
Mode extension                           : MS Stereo
Codec ID                                 : 55
Codec ID/Hint                            : MP3
Duration                                 : 24 min 9 s
Bit rate mode                            : Constant
Bit rate                                 : 128 kb/s
Channel(s)                               : 2 channels
Sampling rate                            : 44.1 kHz
Compression mode                         : Lossy
Stream size                              : 22.1 MiB (13%)
Alignment                                : Aligned on interleaves
Interleave, duration                     : 26  ms (0.63 video frame)
Interleave, preload duration             : 496  ms

Other Files in this Torrent
[ass]_Hokuto_no_Ken_-_037[XviD-RC4.9468356D].avi
beta
Anime DDL+NZB mirror
Current Time: 16/01/2018 19:38



About/FAQs