[ass]_Hokuto_no_Ken_-_038[XviD-1.0][527B289B].avi


File Size231.4 MB (242,628,608 bytes)
DownloadClickNUpload | Go4Up | Jheberg | MultiUp | OpenLoad | Sendspace | SolidFiles | Upfile.mobi
HashesCRC32: 527B289B, MD5: AA153B5763D2B7C0730E9AA6E356728F, SHA1: ECABEDDD57C1596AFA76367BA4BEA44BC9B64928, SHA256: 4D575F5C0993B75A114D48B8E7F4247C6F095689ADD3847077082C85DD617043, ED2K: 36EEACA1BEAAB99BCECB8DCADABF0F08
Screenshots
screenshotscreenshotscreenshotscreenshotscreenshot
Additional Info
General
Complete name                            : [ass]_Hokuto_no_Ken_-_038[XviD-1.0][527B289B].avi
Format                                   : AVI
Format/Info                              : Audio Video Interleave
File size                                : 231 MiB
Duration                                 : 24 min 9 s
Overall bit rate                         : 1 339 kb/s
Writing application                      : Nandub v1.0rc2
Writing library                          : Nandub build 1853/release

Video
ID                                       : 0
Format                                   : MPEG-4 Visual
Format profile                           : [email protected]
Format settings, BVOP                    : 2
Format settings, QPel                    : No
Format settings, GMC                     : No warppoints
Format settings, Matrix                  : Default (H.263)
Codec ID                                 : XVID
Codec ID/Hint                            : XviD
Duration                                 : 24 min 9 s
Bit rate                                 : 1 199 kb/s
Width                                    : 640 pixels
Height                                   : 480 pixels
Display aspect ratio                     : 4:3
Frame rate                               : 23.976 (24000/1001) FPS
Color space                              : YUV
Chroma subsampling                       : 4:2:0
Bit depth                                : 8 bits
Scan type                                : Progressive
Compression mode                         : Lossy
Bits/(Pixel*Frame)                       : 0.163
Stream size                              : 207 MiB (90%)
Writing library                          : XviD 1.0.0 (UTC 2004-05-09)

Audio
ID                                       : 1
Format                                   : MPEG Audio
Format version                           : Version 1
Format profile                           : Layer 3
Mode                                     : Joint stereo
Codec ID                                 : 55
Codec ID/Hint                            : MP3
Duration                                 : 24 min 9 s
Bit rate mode                            : Constant
Bit rate                                 : 128 kb/s
Channel(s)                               : 2 channels
Sampling rate                            : 44.1 kHz
Compression mode                         : Lossy
Stream size                              : 22.1 MiB (10%)
Alignment                                : Aligned on interleaves
Interleave, duration                     : 26  ms (0.63 video frame)
Interleave, preload duration             : 496  ms

Other Files in this Torrent
[ass]_Hokuto_no_Ken_-_038[XviD-1.0][527B289B].avi
beta
Anime DDL+NZB mirror
Current Time: 16/01/2018 19:39



About/FAQs