[ass]_Hokuto_no_Ken_-_039[XviD-1.0][4FE34291].avi


File Size231.4 MB (242,640,896 bytes)
DownloadClickNUpload | Go4Up | Jheberg | MultiUp | OpenLoad | Sendspace | SolidFiles | Upfile.mobi
HashesCRC32: 4FE34291, MD5: 555598E00CC41E924518F892D713D837, SHA1: C9D21D4C2D16FC13D2A8C10555C3110B576FF2D3, SHA256: 8DFC09B265AE23B02A4036700F02EB13973311F6D6903C6FE1AE589206375950, ED2K: DB79548036D93F07F8592F51292D6EE6
Screenshots
screenshotscreenshotscreenshotscreenshotscreenshot
Additional Info
General
Complete name                            : [ass]_Hokuto_no_Ken_-_039[XviD-1.0][4FE34291].avi
Format                                   : AVI
Format/Info                              : Audio Video Interleave
File size                                : 231 MiB
Duration                                 : 24 min 10 s
Overall bit rate                         : 1 338 kb/s
Writing application                      : Nandub v1.0rc2
Writing library                          : Nandub build 1853/release

Video
ID                                       : 0
Format                                   : MPEG-4 Visual
Format profile                           : [email protected]
Format settings, BVOP                    : 2
Format settings, QPel                    : No
Format settings, GMC                     : No warppoints
Format settings, Matrix                  : Default (H.263)
Codec ID                                 : XVID
Codec ID/Hint                            : XviD
Duration                                 : 24 min 10 s
Bit rate                                 : 1 198 kb/s
Width                                    : 640 pixels
Height                                   : 480 pixels
Display aspect ratio                     : 4:3
Frame rate                               : 23.976 (24000/1001) FPS
Color space                              : YUV
Chroma subsampling                       : 4:2:0
Bit depth                                : 8 bits
Scan type                                : Progressive
Compression mode                         : Lossy
Bits/(Pixel*Frame)                       : 0.163
Stream size                              : 207 MiB (90%)
Writing library                          : XviD 1.0.0 (UTC 2004-05-09)

Audio
ID                                       : 1
Format                                   : MPEG Audio
Format version                           : Version 1
Format profile                           : Layer 3
Mode                                     : Joint stereo
Mode extension                           : MS Stereo
Codec ID                                 : 55
Codec ID/Hint                            : MP3
Duration                                 : 24 min 10 s
Bit rate mode                            : Constant
Bit rate                                 : 128 kb/s
Channel(s)                               : 2 channels
Sampling rate                            : 44.1 kHz
Compression mode                         : Lossy
Stream size                              : 22.1 MiB (10%)
Alignment                                : Aligned on interleaves
Interleave, duration                     : 26  ms (0.63 video frame)
Interleave, preload duration             : 496  ms

Other Files in this Torrent
[ass]_Hokuto_no_Ken_-_039[XviD-1.0][4FE34291].avi
beta
Anime DDL+NZB mirror
Current Time: 16/01/2018 19:32



About/FAQs