[ass]_Hokuto_no_Ken_-_042[XviD-1.0.2][C2C4FBE5].avi


File Size233.2 MB (244,531,200 bytes)
DownloadClickNUpload | Go4Up | Jheberg | MultiUp
  • ClickNupload
  • Fichier
  • Filerio
  • Free
  • Fufox
  • HugeFiles
  • Mightyupload
  • ToutBox
  • Turbobit
  • UpToBox
  • Uplea
  • UploadBaz
  • Uploadable
  • Uploaded
  • Uppit
  • Userscloud
| OpenLoad | Sendspace | SolidFiles | Upfile.mobi
HashesCRC32: C2C4FBE5, MD5: E371297234D4D3BF5ABD81188A4E1052, SHA1: DD8DC979CA9AFD472B9CFB1B06093754E9822B39, SHA256: 782E3E6B9F8C0E55B0011A65A1487859D4927B6816F597BBE6386C6AAF12A61C, ED2K: C8D11745248224D103914B5D8607FFB8
Screenshots
screenshotscreenshotscreenshotscreenshotscreenshot
Additional Info
General
Complete name                            : [ass]_Hokuto_no_Ken_-_042[XviD-1.0.2][C2C4FBE5].avi
Format                                   : AVI
Format/Info                              : Audio Video Interleave
File size                                : 233 MiB
Duration                                 : 24 min 11 s
Overall bit rate                         : 1 348 kb/s
Writing application                      : Nandub v1.0rc2
Writing library                          : Nandub build 1853/release

Video
ID                                       : 0
Format                                   : MPEG-4 Visual
Format profile                           : [email protected]
Format settings, BVOP                    : 2
Format settings, QPel                    : No
Format settings, GMC                     : No warppoints
Format settings, Matrix                  : Default (H.263)
Muxing mode                              : Packed bitstream
Codec ID                                 : XVID
Codec ID/Hint                            : XviD
Duration                                 : 24 min 11 s
Bit rate                                 : 1 208 kb/s
Width                                    : 640 pixels
Height                                   : 480 pixels
Display aspect ratio                     : 4:3
Frame rate                               : 23.976 (24000/1001) FPS
Color space                              : YUV
Chroma subsampling                       : 4:2:0
Bit depth                                : 8 bits
Scan type                                : Progressive
Compression mode                         : Lossy
Bits/(Pixel*Frame)                       : 0.164
Stream size                              : 209 MiB (90%)
Writing library                          : XviD 1.0.2 (UTC 2004-08-29)

Audio
ID                                       : 1
Format                                   : MPEG Audio
Format version                           : Version 1
Format profile                           : Layer 3
Mode                                     : Joint stereo
Mode extension                           : MS Stereo
Codec ID                                 : 55
Codec ID/Hint                            : MP3
Duration                                 : 24 min 11 s
Bit rate mode                            : Constant
Bit rate                                 : 128 kb/s
Channel(s)                               : 2 channels
Sampling rate                            : 44.1 kHz
Compression mode                         : Lossy
Stream size                              : 22.1 MiB (9%)
Alignment                                : Aligned on interleaves
Interleave, duration                     : 26  ms (0.63 video frame)
Interleave, preload duration             : 496  ms

Other Files in this Torrent
[ass]_Hokuto_no_Ken_-_042[XviD-1.0.2][C2C4FBE5].avi
beta
Anime DDL+NZB mirror
Current Time: 16/01/2018 19:39



About/FAQs