[ass]_Hokuto_no_Ken_-_043[XviD-1.0.2][E33E4FF7].avi


File Size223.1 MB (233,949,184 bytes)
DownloadClickNUpload | Go4Up | Jheberg | MultiUp | OpenLoad | Sendspace | SolidFiles | Upfile.mobi
HashesCRC32: E33E4FF7, MD5: 45C440C4BBD21C3E9EB2FDDFFA673EB9, SHA1: 74EBB0828AA084D4EF89B17B10BB947E073DDA58, SHA256: EA65C7B8FA433FFF7A71A7BFAD05EFEDEDC474C284D03724C6BF05C89E469738, ED2K: 4D4EAA5D21A1AFCB634B89C2C519D94B
Screenshots
screenshotscreenshotscreenshotscreenshotscreenshot
Additional Info
General
Complete name                            : [ass]_Hokuto_no_Ken_-_043[XviD-1.0.2][E33E4FF7].avi
Format                                   : AVI
Format/Info                              : Audio Video Interleave
File size                                : 223 MiB
Duration                                 : 24 min 11 s
Overall bit rate                         : 1 290 kb/s
Writing application                      : Nandub v1.0rc2
Writing library                          : Nandub build 1853/release

Video
ID                                       : 0
Format                                   : MPEG-4 Visual
Format profile                           : [email protected]
Format settings, BVOP                    : 2
Format settings, QPel                    : No
Format settings, GMC                     : No warppoints
Format settings, Matrix                  : Default (H.263)
Muxing mode                              : Packed bitstream
Codec ID                                 : XVID
Codec ID/Hint                            : XviD
Duration                                 : 24 min 11 s
Bit rate                                 : 1 150 kb/s
Width                                    : 640 pixels
Height                                   : 480 pixels
Display aspect ratio                     : 4:3
Frame rate                               : 23.976 (24000/1001) FPS
Color space                              : YUV
Chroma subsampling                       : 4:2:0
Bit depth                                : 8 bits
Scan type                                : Progressive
Compression mode                         : Lossy
Bits/(Pixel*Frame)                       : 0.156
Stream size                              : 199 MiB (89%)
Writing library                          : XviD 1.0.2 (UTC 2004-08-29)

Audio
ID                                       : 1
Format                                   : MPEG Audio
Format version                           : Version 1
Format profile                           : Layer 3
Mode                                     : Joint stereo
Codec ID                                 : 55
Codec ID/Hint                            : MP3
Duration                                 : 24 min 10 s
Bit rate mode                            : Constant
Bit rate                                 : 128 kb/s
Channel(s)                               : 2 channels
Sampling rate                            : 44.1 kHz
Compression mode                         : Lossy
Stream size                              : 22.1 MiB (10%)
Alignment                                : Aligned on interleaves
Interleave, duration                     : 26  ms (0.63 video frame)
Interleave, preload duration             : 496  ms

Other Files in this Torrent
[ass]_Hokuto_no_Ken_-_043[XviD-1.0.2][E33E4FF7].avi
beta
Anime DDL+NZB mirror
Current Time: 18/01/2018 14:08



About/FAQs