[HoM]_Hokuto_no_Ken_-_006[XviD_MP3][7A19E8E7].avi


File Size232.3 MB (243,591,168 bytes)
DownloadClickNUpload | Go4Up | Jheberg | MultiUp
  • ClickNupload
  • Fichier
  • Filerio
  • Free
  • Fufox
  • HugeFiles
  • Mightyupload
  • ToutBox
  • Turbobit
  • UpToBox
  • Uplea
  • UploadBaz
  • Uploadable
  • Uploaded
  • Uppit
  • Userscloud
| OpenLoad | Sendspace | SolidFiles | Upfile.mobi
HashesCRC32: 7A19E8E7, MD5: 4B0E7700A5E4B4FFA27A040CC0D94118, SHA1: 56D5A81FA19BBC7E3A448B469635E5D84D2CDE25, SHA256: 5588E0A38FC79F675E7CD73C0198593B376F9480E69DD0124669167960183ACB, ED2K: C092CE7F527528F7CEAF6945F2F5CD5A
Screenshots
screenshotscreenshotscreenshotscreenshotscreenshot
Additional Info
General
Complete name                            : [HoM]_Hokuto_no_Ken_-_006[XviD_MP3][7A19E8E7].avi
Format                                   : AVI
Format/Info                              : Audio Video Interleave
File size                                : 232 MiB
Duration                                 : 24 min 9 s
Overall bit rate                         : 1 344 kb/s
Writing application                      : Nandub v1.0rc2
Writing library                          : Nandub build 1853/release

Video
ID                                       : 0
Format                                   : MPEG-4 Visual
Format profile                           : Advanced [email protected]
Format settings, BVOP                    : 2
Format settings, QPel                    : No
Format settings, GMC                     : No warppoints
Format settings, Matrix                  : Default (H.263)
Codec ID                                 : XVID
Codec ID/Hint                            : XviD
Duration                                 : 24 min 9 s
Bit rate                                 : 1 204 kb/s
Width                                    : 640 pixels
Height                                   : 432 pixels
Display aspect ratio                     : 3:2
Frame rate                               : 23.976 (24000/1001) FPS
Color space                              : YUV
Chroma subsampling                       : 4:2:0
Bit depth                                : 8 bits
Scan type                                : Progressive
Compression mode                         : Lossy
Bits/(Pixel*Frame)                       : 0.182
Stream size                              : 208 MiB (90%)
Writing library                          : XviD 1.1.0 (UTC 2005-11-22)

Audio
ID                                       : 1
Format                                   : MPEG Audio
Format version                           : Version 1
Format profile                           : Layer 3
Codec ID                                 : 55
Codec ID/Hint                            : MP3
Duration                                 : 24 min 9 s
Bit rate mode                            : Constant
Bit rate                                 : 128 kb/s
Channel(s)                               : 2 channels
Sampling rate                            : 44.1 kHz
Compression mode                         : Lossy
Stream size                              : 22.1 MiB (10%)
Alignment                                : Aligned on interleaves
Interleave, duration                     : 26  ms (0.63 video frame)
Interleave, preload duration             : 496  ms

Other Files in this Torrent
[HoM]_Hokuto_no_Ken_-_006[XviD_MP3][7A19E8E7].avi
beta
Anime DDL+NZB mirror
Current Time: 16/01/2018 19:39



About/FAQs