[HoM]_Hokuto_no_Ken_-_052[XviD_AC3][41AED6F1].avi


File Size233.9 MB (245,254,144 bytes)
DownloadClickNUpload | Go4Up | Jheberg | MultiUp | OpenLoad | Sendspace | SolidFiles | Upfile.mobi
Encrypted DownloadDirect
Password:
HashesCRC32: 41AED6F1, MD5: 58EDE2CDC28D2B15AE7AC7C13DABCCF5, SHA1: 7795A4F2DD502F6C60305210F05573F981FE32D0, SHA256: 18F08356AF6A993F8A1889367B8C884134E33AA678C8C11C25EFAA56EBF71F12, ED2K: 7AA940FB676442D017994B388F93495B
Screenshots
screenshotscreenshotscreenshotscreenshotscreenshot
Additional Info
General
Complete name                            : [HoM]_Hokuto_no_Ken_-_052[XviD_AC3][41AED6F1].avi
Format                                   : AVI
Format/Info                              : Audio Video Interleave
File size                                : 234 MiB
Duration                                 : 24 min 8 s
Overall bit rate                         : 1 355 kb/s
Writing application                      : Nandub v1.0rc2
Writing library                          : Nandub build 1853/release

Video
ID                                       : 0
Format                                   : MPEG-4 Visual
Format profile                           : Advanced [email protected]
Format settings, BVOP                    : 2
Format settings, QPel                    : Yes
Format settings, GMC                     : No warppoints
Format settings, Matrix                  : Default (H.263)
Codec ID                                 : XVID
Codec ID/Hint                            : XviD
Duration                                 : 24 min 8 s
Bit rate                                 : 1 089 kb/s
Width                                    : 640 pixels
Height                                   : 432 pixels
Display aspect ratio                     : 3:2
Frame rate                               : 23.976 (24000/1001) FPS
Color space                              : YUV
Chroma subsampling                       : 4:2:0
Bit depth                                : 8 bits
Scan type                                : Progressive
Compression mode                         : Lossy
Bits/(Pixel*Frame)                       : 0.164
Stream size                              : 188 MiB (80%)
Writing library                          : XviD 1.0.3 (UTC 2004-12-20)

Audio
ID                                       : 1
Format                                   : AC-3
Format/Info                              : Audio Coding 3
Mode extension                           : CM (complete main)
Format settings, Endianness              : Big
Codec ID                                 : 2000
Duration                                 : 24 min 8 s
Bit rate mode                            : Constant
Bit rate                                 : 256 kb/s
Channel(s)                               : 2 channels
Channel positions                        : Front: L R
Sampling rate                            : 48.0 kHz
Frame rate                               : 31.250 FPS (1536 spf)
Bit depth                                : 16 bits
Compression mode                         : Lossy
Stream size                              : 44.2 MiB (19%)
Alignment                                : Split accross interleaves
Interleave, duration                     : 42  ms (1.00 video frame)
Interleave, preload duration             : 500  ms

Other Files in this Torrent
[HoM]_Hokuto_no_Ken_-_052[XviD_AC3][41AED6F1].avi
beta
Anime DDL+NZB mirror
Current Time: 27/04/2018 08:31



About/FAQs