[HoM]_Hokuto_no_Ken_-_054[XviD_AC3][A2E703DF].avi


File Size233.4 MB (244,725,760 bytes)
DownloadClickNUpload | Go4Up | Jheberg | MultiUp | OpenLoad | Sendspace | SolidFiles | Upfile.mobi
Encrypted DownloadDirect
Password:
HashesCRC32: A2E703DF, MD5: D0FAD085A767FE782E2C364BCFA85625, SHA1: 868730C4171F978B27F85DE2EE9C04D4EC8183DE, SHA256: 0304A9EE6F62E58C4776C85AC2BD5B510D356E57691229A43A7FED459B8475E7, ED2K: 7694B67CB0DD06A520D492EA6B821056
Screenshots
screenshotscreenshotscreenshotscreenshotscreenshot
Additional Info
General
Complete name                            : [HoM]_Hokuto_no_Ken_-_054[XviD_AC3][A2E703DF].avi
Format                                   : AVI
Format/Info                              : Audio Video Interleave
File size                                : 233 MiB
Duration                                 : 24 min 12 s
Overall bit rate                         : 1 348 kb/s
Writing application                      : Nandub v1.0rc2
Writing library                          : Nandub build 1853/release

Video
ID                                       : 0
Format                                   : MPEG-4 Visual
Format profile                           : Advanced [email protected]
Format settings, BVOP                    : 2
Format settings, QPel                    : Yes
Format settings, GMC                     : No warppoints
Format settings, Matrix                  : Default (H.263)
Codec ID                                 : XVID
Codec ID/Hint                            : XviD
Duration                                 : 24 min 12 s
Bit rate                                 : 1 082 kb/s
Width                                    : 640 pixels
Height                                   : 432 pixels
Display aspect ratio                     : 3:2
Frame rate                               : 23.976 (24000/1001) FPS
Color space                              : YUV
Chroma subsampling                       : 4:2:0
Bit depth                                : 8 bits
Scan type                                : Progressive
Compression mode                         : Lossy
Bits/(Pixel*Frame)                       : 0.163
Stream size                              : 187 MiB (80%)
Writing library                          : XviD 1.0.3 (UTC 2004-12-20)

Audio
ID                                       : 1
Format                                   : AC-3
Format/Info                              : Audio Coding 3
Mode extension                           : CM (complete main)
Format settings, Endianness              : Big
Codec ID                                 : 2000
Duration                                 : 24 min 12 s
Bit rate mode                            : Constant
Bit rate                                 : 256 kb/s
Channel(s)                               : 2 channels
Channel positions                        : Front: L R
Sampling rate                            : 48.0 kHz
Frame rate                               : 31.250 FPS (1536 spf)
Bit depth                                : 16 bits
Compression mode                         : Lossy
Stream size                              : 44.3 MiB (19%)
Alignment                                : Split accross interleaves
Interleave, duration                     : 42  ms (1.00 video frame)
Interleave, preload duration             : 500  ms

Other Files in this Torrent
[HoM]_Hokuto_no_Ken_-_054[XviD_AC3][A2E703DF].avi
beta
Anime DDL+NZB mirror
Current Time: 27/04/2018 08:35



About/FAQs