[HoM]_Hokuto_no_Ken_-_057[XviD_AC3][2C016E4A].avi


File Size233.5 MB (244,840,448 bytes)
DownloadClickNUpload | Go4Up | Jheberg | MultiUp | OpenLoad | Sendspace | SolidFiles | Upfile.mobi
HashesCRC32: 2C016E4A, MD5: 411C591AFB5DA1261B7D766FD07B9C5B, SHA1: 3DA501F14FAF5C182DEF0016F117A2DC43668FF5, SHA256: B78951ADF6ADDCCF9C12A4AB9EB98CE09F9DBD66ED50CD55CE3B0E6A92A2EC19, ED2K: 25D75FA304F42D737ABD3595D478F356
Screenshots
screenshotscreenshotscreenshotscreenshotscreenshot
Additional Info
General
Complete name                            : [HoM]_Hokuto_no_Ken_-_057[XviD_AC3][2C016E4A].avi
Format                                   : AVI
Format/Info                              : Audio Video Interleave
File size                                : 233 MiB
Duration                                 : 24 min 5 s
Overall bit rate                         : 1 355 kb/s
Writing application                      : Nandub v1.0rc2
Writing library                          : Nandub build 1853/release

Video
ID                                       : 0
Format                                   : MPEG-4 Visual
Format profile                           : Advanced [email protected]
Format settings, BVOP                    : 2
Format settings, QPel                    : Yes
Format settings, GMC                     : No warppoints
Format settings, Matrix                  : Default (H.263)
Codec ID                                 : XVID
Codec ID/Hint                            : XviD
Duration                                 : 24 min 5 s
Bit rate                                 : 1 089 kb/s
Width                                    : 640 pixels
Height                                   : 432 pixels
Display aspect ratio                     : 3:2
Frame rate                               : 23.976 (24000/1001) FPS
Color space                              : YUV
Chroma subsampling                       : 4:2:0
Bit depth                                : 8 bits
Scan type                                : Progressive
Compression mode                         : Lossy
Bits/(Pixel*Frame)                       : 0.164
Stream size                              : 188 MiB (80%)
Writing library                          : XviD 1.1.0 Beta2 (UTC 2005-04-04)

Audio
ID                                       : 1
Format                                   : AC-3
Format/Info                              : Audio Coding 3
Mode extension                           : CM (complete main)
Format settings, Endianness              : Big
Codec ID                                 : 2000
Duration                                 : 24 min 5 s
Bit rate mode                            : Constant
Bit rate                                 : 256 kb/s
Channel(s)                               : 2 channels
Channel positions                        : Front: L R
Sampling rate                            : 48.0 kHz
Frame rate                               : 31.250 FPS (1536 spf)
Bit depth                                : 16 bits
Compression mode                         : Lossy
Stream size                              : 44.1 MiB (19%)
Alignment                                : Split accross interleaves
Interleave, duration                     : 42  ms (1.00 video frame)
Interleave, preload duration             : 500  ms

Other Files in this Torrent
[HoM]_Hokuto_no_Ken_-_057[XviD_AC3][2C016E4A].avi
beta
Anime DDL+NZB mirror
Current Time: 16/01/2018 19:37



About/FAQs