[HoM]_Hokuto_no_Ken_-_059[XviD_MP3][906C364E].avi


File Size232.7 MB (244,017,152 bytes)
DownloadClickNUpload | Go4Up | Jheberg | MultiUp
  • ClickNupload
  • Fichier
  • Filerio
  • Free
  • Fufox
  • HugeFiles
  • Mightyupload
  • ToutBox
  • Turbobit
  • UpToBox
  • Uplea
  • UploadBaz
  • Uploadable
  • Uploaded
  • Uppit
  • Userscloud
| OpenLoad | Sendspace | SolidFiles | Upfile.mobi
HashesCRC32: 906C364E, MD5: C25DC7A456F2EF95AFACC89A03394F88, SHA1: D2226D6618491D43F7F72E43FCCCE18DCA703CA1, SHA256: 037C0EE7B33EEC11BC2AD8533B745E2FA81591847D266C945624D6A150A9533E, ED2K: E4E37FACC57E5DAAE7288531AAC4B3C7
Screenshots
screenshotscreenshotscreenshotscreenshotscreenshot
Additional Info
General
Complete name                            : [HoM]_Hokuto_no_Ken_-_059[XviD_MP3][906C364E].avi
Format                                   : AVI
Format/Info                              : Audio Video Interleave
File size                                : 233 MiB
Duration                                 : 24 min 11 s
Overall bit rate                         : 1 345 kb/s
Writing application                      : Nandub v1.0rc2
Writing library                          : Nandub build 1853/release

Video
ID                                       : 0
Format                                   : MPEG-4 Visual
Format profile                           : Advanced [email protected]
Format settings, BVOP                    : 2
Format settings, QPel                    : No
Format settings, GMC                     : No warppoints
Format settings, Matrix                  : Default (H.263)
Codec ID                                 : XVID
Codec ID/Hint                            : XviD
Duration                                 : 24 min 11 s
Bit rate                                 : 1 205 kb/s
Width                                    : 640 pixels
Height                                   : 432 pixels
Display aspect ratio                     : 3:2
Frame rate                               : 23.976 (24000/1001) FPS
Color space                              : YUV
Chroma subsampling                       : 4:2:0
Bit depth                                : 8 bits
Scan type                                : Progressive
Compression mode                         : Lossy
Bits/(Pixel*Frame)                       : 0.182
Stream size                              : 208 MiB (90%)
Writing library                          : XviD 1.1.0 Beta2 (UTC 2005-04-04)

Audio
ID                                       : 1
Format                                   : MPEG Audio
Format version                           : Version 1
Format profile                           : Layer 3
Mode                                     : Joint stereo
Mode extension                           : MS Stereo
Codec ID                                 : 55
Codec ID/Hint                            : MP3
Duration                                 : 24 min 11 s
Bit rate mode                            : Constant
Bit rate                                 : 128 kb/s
Channel(s)                               : 2 channels
Sampling rate                            : 44.1 kHz
Compression mode                         : Lossy
Stream size                              : 22.1 MiB (10%)
Alignment                                : Aligned on interleaves
Interleave, duration                     : 26  ms (0.63 video frame)
Interleave, preload duration             : 496  ms

Other Files in this Torrent
[HoM]_Hokuto_no_Ken_-_059[XviD_MP3][906C364E].avi
beta
Anime DDL+NZB mirror
Current Time: 16/01/2018 19:32



About/FAQs