[HoM]_Hokuto_no_Ken_-_087[XviD_MP3][10A52A25].avi


File Size232.4 MB (243,726,336 bytes)
DownloadClickNUpload | Go4Up | Jheberg | MultiUp | OpenLoad | Sendspace | SolidFiles | Upfile.mobi
Encrypted DownloadDirect
Password:
HashesCRC32: 10A52A25, MD5: EA457424A90BAC05F92926723CF92B74, SHA1: 7722FBD15664578F7C71F634EB03953F8D02D6EE, SHA256: 55697BE3289E590ECB3946A91C19689E8D3931857EF5B0ADE69BA2B18FB5B6D5, ED2K: 5758F01BB4DD89B282C21A5D5EFF7BD9
Screenshots
screenshotscreenshotscreenshotscreenshotscreenshot
Additional Info
General
Complete name                            : [HoM]_Hokuto_no_Ken_-_087[XviD_MP3][10A52A25].avi
Format                                   : AVI
Format/Info                              : Audio Video Interleave
File size                                : 232 MiB
Duration                                 : 24 min 8 s
Overall bit rate                         : 1 346 kb/s
Writing application                      : Nandub v1.0rc2
Writing library                          : Nandub build 1853/release

Video
ID                                       : 0
Format                                   : MPEG-4 Visual
Format profile                           : Advanced [email protected]
Format settings, BVOP                    : 2
Format settings, QPel                    : No
Format settings, GMC                     : No warppoints
Format settings, Matrix                  : Default (H.263)
Codec ID                                 : XVID
Codec ID/Hint                            : XviD
Duration                                 : 24 min 8 s
Bit rate                                 : 1 206 kb/s
Width                                    : 640 pixels
Height                                   : 432 pixels
Display aspect ratio                     : 3:2
Frame rate                               : 23.976 (24000/1001) FPS
Color space                              : YUV
Chroma subsampling                       : 4:2:0
Bit depth                                : 8 bits
Scan type                                : Progressive
Compression mode                         : Lossy
Bits/(Pixel*Frame)                       : 0.182
Stream size                              : 208 MiB (90%)
Writing library                          : XviD 1.1.0 (UTC 2005-11-22)

Audio
ID                                       : 1
Format                                   : MPEG Audio
Format version                           : Version 1
Format profile                           : Layer 3
Codec ID                                 : 55
Codec ID/Hint                            : MP3
Duration                                 : 24 min 8 s
Bit rate mode                            : Constant
Bit rate                                 : 128 kb/s
Channel(s)                               : 2 channels
Sampling rate                            : 44.1 kHz
Compression mode                         : Lossy
Stream size                              : 22.1 MiB (10%)
Alignment                                : Aligned on interleaves
Interleave, duration                     : 26  ms (0.63 video frame)
Interleave, preload duration             : 496  ms

Other Files in this Torrent
[HoM]_Hokuto_no_Ken_-_087[XviD_MP3][10A52A25].avi
beta
Anime DDL+NZB mirror
Current Time: 27/04/2018 08:35



About/FAQs