[HoM]_Hokuto_no_Ken_-_102[XviD_MP3][3D116E58].avi


File Size232.9 MB (244,201,472 bytes)
DownloadClickNUpload | Go4Up | Jheberg | MultiUp | OpenLoad | Sendspace | SolidFiles | Upfile.mobi
HashesCRC32: 3D116E58, MD5: 4F017DDC572E2AA100D548F2BADE59A7, SHA1: 59C4734A5912D2576A626D3DBCCFC1E5796F8E55, SHA256: 800CEFB813D5BAAF6D8EC8A53F1195D40269FAF96007B03D0B66C3C047BA83AC, ED2K: 5F56F2C0A7717350F23D9CCCE2C6B191
Screenshots
screenshotscreenshotscreenshotscreenshotscreenshot
Additional Info
General
Complete name                            : [HoM]_Hokuto_no_Ken_-_102[XviD_MP3][3D116E58].avi
Format                                   : AVI
Format/Info                              : Audio Video Interleave
File size                                : 233 MiB
Duration                                 : 24 min 12 s
Overall bit rate                         : 1 345 kb/s
Writing application                      : Nandub v1.0rc2
Writing library                          : Nandub build 1853/release

Video
ID                                       : 0
Format                                   : MPEG-4 Visual
Format profile                           : Advanced [email protected]
Format settings, BVOP                    : 2
Format settings, QPel                    : No
Format settings, GMC                     : No warppoints
Format settings, Matrix                  : Default (H.263)
Codec ID                                 : XVID
Codec ID/Hint                            : XviD
Duration                                 : 24 min 12 s
Bit rate                                 : 1 205 kb/s
Width                                    : 640 pixels
Height                                   : 432 pixels
Display aspect ratio                     : 3:2
Frame rate                               : 23.976 (24000/1001) FPS
Color space                              : YUV
Chroma subsampling                       : 4:2:0
Bit depth                                : 8 bits
Scan type                                : Progressive
Compression mode                         : Lossy
Bits/(Pixel*Frame)                       : 0.182
Stream size                              : 209 MiB (90%)
Writing library                          : XviD 1.1.0 (UTC 2005-11-22)

Audio
ID                                       : 1
Format                                   : MPEG Audio
Format version                           : Version 1
Format profile                           : Layer 3
Codec ID                                 : 55
Codec ID/Hint                            : MP3
Duration                                 : 24 min 12 s
Bit rate mode                            : Constant
Bit rate                                 : 128 kb/s
Channel(s)                               : 2 channels
Sampling rate                            : 44.1 kHz
Compression mode                         : Lossy
Stream size                              : 22.2 MiB (10%)
Alignment                                : Aligned on interleaves
Interleave, duration                     : 26  ms (0.63 video frame)
Interleave, preload duration             : 496  ms

Other Files in this Torrent
[HoM]_Hokuto_no_Ken_-_102[XviD_MP3][3D116E58].avi
beta
Anime DDL+NZB mirror
Current Time: 16/01/2018 19:37



About/FAQs